Quick Browse
Movies
TV shows
Music
Games
Applications
Anime
Other

Latest Articles

Avengers Infinity War 2018 New HDTC 720p Hindi x264 LLG


    Seeders : 0      Leechers : 0


Note :

Please Update (Trackers Info) Before Downloading Torrents to See Updated Seeders And Leechers for Batter Download Speed.

Trackers List

Tracker NameLast CheckStatusSeedersLeechers




Torrent File Content (2 files)


Avengers Infinity War 2018.New.HDTC.720p.Hindi.x264.LLG
     Sample.mp4 -
6.97 MB

     Avengers Infinity War 2018.New.HDTC.720p.Hindi.x264.LLG.mp4 -
1.02 GB



Description



Movies : Action : Cam : Hindi
******************************Thumbnail:**********************



******************************Screenshots:********************

Screenshot 1

Screenshot 2

Screenshot 3

Screenshot 4

Screenshot 5

Screenshot 6

Screenshot 7

Screenshot 8

Screenshot 9

Screenshot 0

**************************************************************

Complete name : Avengers Infinity War 2018.New.HDTC.720p.Hindi.x264.LLG.mp4
Format : MPEG-4
Format profile : Base Media
Codec ID : isom (isom/iso2/avc1/mp41)
File size : 1.02 GiB
Duration : 1 h 53 min
Overall bit rate : 1 284 kb/s
Writing application : Lavf57.56.101

Video
ID : 1
Format : AVC
Format/Info : Advanced Video Codec
Format profile : [email protected]
Format settings : CABAC / 4 Ref Frames
Format settings, CABAC : Yes
Format settings, RefFrames : 4 frames
Codec ID : avc1
Codec ID/Info : Advanced Video Coding
Duration : 1 h 53 min
Bit rate : 1 200 kb/s
Width : 1 280 pixels
Height : 536 pixels
Display aspect ratio : 2.40:1
Frame rate mode : Constant
Frame rate : 25.000 FPS
Color space : YUV
Chroma subsampling : 4:2:0
Bit depth : 8 bits
Scan type : Progressive
Bits/(Pixel*Frame) : 0.070
Stream size : 982 MiB (94%)

Audio
ID : 2
Format : AAC
Format/Info : Advanced Audio Codec
Format profile : LC
Codec ID : mp4a-40-2
Duration : 1 h 53 min
Bit rate mode : Constant
Bit rate : 64.4 kb/s
Channel(s) : 2 channels
Channel positions : Front: L R
Sampling rate : 48.0 kHz
Frame rate : 46.875 FPS (1024 SPF)
Compression mode : Lossy
Stream size : 52.2 MiB (5%)
Language : Hindi
Default : Yes
Alternate group : 1

Related torrents

Torrent NameAddedSizeSeedLeechHealth
Last Month - in Movies1.25 GB00
Last Month - in Movies1.25 GB00
18 days ago - in Movies927.52 MB00
Verified torrent
18 days ago - in Movies1.02 GB13943
Last Month - in Movies1.42 GB00



Comments (0 Comments)




Latest Searches