Quick Browse
Movies
TV shows
Music
Games
Applications
Anime
Other

Latest Articles

Verified torrent Richie (2018) 720p HIndi Dubbed HDRip x264 AAC by Full4movies


    Seeders : 2      Leechers : 1


Note :

Please Update (Trackers Info) Before Downloading Torrents to See Updated Seeders And Leechers for Batter Download Speed.

Trackers List

Tracker NameLast CheckStatusSeedersLeechers
http://9.rarbg.to:2780/announce9 days agosuccess21
http://public.popcorn-tracker.org:6969/announce9 days agosuccess21




Torrent File Content (1 file)


     Richie (2018) 720p HIndi Dubbed HDRip x264 AAC by Full4movies.mkv -
855.22 MB



Description



http://cinetalkz.com/wp-content/uploads/2017/06/richie-cinetalkz.jpg


General
Complete name : Richie (2018) 720p HIndi Dubbed HDRip x264 AAC by Full4movies.mkv
Format : Matroska
Format version : Version 4 / Version 2
File size : 855 MiB
Duration : 1 h 38 min
Overall bit rate : 1 216 kb/s
Movie name : www.Full4movies.co
Encoded date : UTC 2018-06-13 10:21:28
Writing application : mkvmerge v8.1.0 ('Psychedelic Postcard') 32bit
Writing library : libebml v1.3.1 + libmatroska v1.4.2

Video
ID : 1
Format : AVC
Format/Info : Advanced Video Codec
Format profile : [email protected]
Format settings, CABAC : Yes
Format settings, RefFrames : 3 frames
Codec ID : V_MPEG4/ISO/AVC
Duration : 1 h 38 min
Bit rate : 1 089 kb/s
Width : 1 280 pixels
Height : 720 pixels
Display aspect ratio : 16:9
Frame rate mode : Constant
Frame rate : 25.000 FPS
Color space : YUV
Chroma subsampling : 4:2:0
Bit depth : 8 bits
Scan type : Progressive
Bits/(Pixel*Frame) : 0.047
Stream size : 765 MiB (89%)
Default : Yes
Forced : No
Color range : Limited
Color primaries : BT.709
Transfer characteristics : BT.709
Matrix coefficients : BT.709

Audio
ID : 2
Format : AAC
Format/Info : Advanced Audio Codec
Format profile : LC
Codec ID : A_AAC
Duration : 1 h 38 min
Bit rate : 126 kb/s
Channel(s) : 2 channels
Channel positions : Front: L R
Sampling rate : 44.1 kHz
Frame rate : 43.066 FPS (1024 SPF)
Compression mode : Lossy
Stream size : 88.3 MiB (10%)
Language : English
Default : Yes
Forced : No

Screen Shoots
http://extraimage.net/images/2018/06/14/d2f9fabed068a8e45fe29b3d0a7bffa6.jpg

Related torrents

Torrent NameAddedSizeSeedLeechHealth
Verified torrent
9 days ago - in Movies991.29 MB00
Verified torrent
13 days ago - in Movies1017.14 MB00
Verified torrent
16 days ago - in Movies941.88 MB00
Verified torrent
19 days ago - in Movies986.56 MB10
Verified torrent
25 days ago - in Movies1.08 GB10
Verified torrent
26 days ago - in Movies1.11 GB00



Comments (0 Comments)




Latest Searches