Quick Browse
Movies
TV shows
Music
Games
Applications
Anime
Other

Latest Articles

Verified torrent Sat Shri Akaal England (2017) 720p Punjabi HDRip x264 AAC by Full4movies


    Seeders : 1      Leechers : 0


Note :

Please Update (Trackers Info) Before Downloading Torrents to See Updated Seeders And Leechers for Batter Download Speed.

Trackers List

Tracker NameLast CheckStatusSeedersLeechers
http://9.rarbg.to:2780/announce9 days agosuccess10
http://public.popcorn-tracker.org:6969/announce9 days agosuccess10




Torrent File Content (1 file)


     Sat Shri Akaal England (2017) 720p Punjabi HDRip x264 AAC by Full4movies.mkv -
1.11 GB



Description



http://www.movies2watch.me/wp-content/uploads/2017/12/Sat-Shri-Akaal-England-Ammy-Virk.jpg


General
Complete name : Sat Shri Akaal England (2017) 720p Punjabi HDRip x264 AAC by Full4movies.mkv
Format : Matroska
Format version : Version 4 / Version 2
File size : 1.11 GiB
Duration : 2 h 7 min
Overall bit rate : 1 240 kb/s
Movie name : Sat Shri Akaal England 2017
Encoded date : UTC 2018-06-11 04:50:09
Writing application : mkvmerge v14.0.0 ('Flow') 32bit
Writing library : libebml v1.3.4 + libmatroska v1.4.5

Video
ID : 1
Format : AVC
Format/Info : Advanced Video Codec
Format profile : [email protected]
Format settings, CABAC : Yes
Format settings, RefFrames : 12 frames
Codec ID : V_MPEG4/ISO/AVC
Duration : 2 h 7 min
Bit rate : 1 014 kb/s
Width : 1 280 pixels
Height : 536 pixels
Display aspect ratio : 2.40:1
Frame rate mode : Constant
Frame rate : 24.000 FPS
Color space : YUV
Chroma subsampling : 4:2:0
Bit depth : 8 bits
Scan type : Progressive
Bits/(Pixel*Frame) : 0.062
Stream size : 927 MiB (82%)
Title : LOKI
Writing library : x264 core 148 r2744 b97ae06
Language : Panjabi
Default : Yes
Forced : Yes
Color range : Limited
Color primaries : BT.709
Transfer characteristics : BT.709
Matrix coefficients : BT.709

Audio
ID : 2
Format : AC-3
Format/Info : Audio Coding 3
Format settings, Endianness : Big
Codec ID : A_AC3
Duration : 2 h 7 min
Bit rate mode : Constant
Bit rate : 224 kb/s
Channel(s) : 6 channels
Channel positions : Front: L C R, Side: L R, LFE
Sampling rate : 48.0 kHz
Frame rate : 31.250 FPS (1536 SPF)
Bit depth : 16 bits
Compression mode : Lossy
Stream size : 205 MiB (18%)
Title : LOKI
Language : Panjabi
Service kind : Complete Main
Default : Yes
Forced : Yes

Text
ID : 3
Format : UTF-8
Codec ID : S_TEXT/UTF8
Codec ID/Info : UTF-8 Plain Text
Duration : 2 h 4 min
Bit rate : 64 b/s
Count of elements : 1947
Stream size : 58.5 KiB (0%)
Title : LOKI
Language : English
Default : Yes
Forced : Yes

Screen Shoots
http://extraimage.net/images/2018/06/14/9b9f5524ade4489d75c2c21bb6357b76.jpg

Related torrents

Torrent NameAddedSizeSeedLeechHealth
6 months ago - in Movies320.52 MB52
6 months ago - in Movies701.4 MB269
Verified torrent
21 days ago - in Movies542.74 MB44
Verified torrent
Last Month - in Movies1012.29 MB00
Last Month - in Movies411.02 MB00
Last Month - in Movies800.43 MB00



Comments (0 Comments)




Latest Searches